PDA

View Full Version : [MF] Underworld: Rise of the Lycans (2009) m-720p BluRay x264-Asco



hoanglong1000
08-02-2012, 03:41 AM
http://www.uphinhnhanh.com/images/14UnderworldRiseoftheLyc.png (http://www.uphinhnhanh.com/view-14UnderworldRiseoftheLyc.png)


General
Complete name : Underworld.Rise.of.the.Lycans.2009.m-720p.BluRay.AC3.x264-Asco.mkv
Format : Matroska
File size : 1.74 GiB
Duration : 1h 32mn
Overall bit rate : 2 687 Kbps
Movie name : AsCo
Encoded date : UTC 2009-04-30 11:36:53
Writing application : mkvmerge v2.2.0 ('Turn It On Again') built on Mar 4 2008 12:58:26
Writing library : libebml v0.7.7 + libmatroska v0.8.1


Video
ID : 1
Format : AVC
Format/Info : Advanced Video Codec
Format profile : High@L4.1
Format settings, CABAC : Yes
Format settings, ReFrames : 4 frames
Muxing mode : Container profile=Unknown@4.1
Codec ID : V_MPEG4/ISO/AVC
Duration : 1h 32mn
Bit rate : 2 300 Kbps
Width : 1 280 pixels
Height : 536 pixels
Display aspect ratio : 2.35:1
Frame rate : 23.976 fps
Color space : YUV
Chroma subsampling : 4:2:0
Bit depth : 8 bits
Scan type : Progressive
Bits/(Pixel*Frame) : 0.140
Stream size : 1.45 GiB (84%)
Writing library : x264 core 67 r1145M d2e1e1c
Encoding settings : cabac=1 / ref=4 / deblock=1:-3:-3 / analyse=0x3:0x113 / me=umh / subme=6 / psy_rd=1.0:0.0


/ mixed_ref=1 / me_range=16 / chroma_me=1 / trellis=2 / 8x8dct=1 / cqm=0 / deadzone=21,11 / chroma_qp_offset=-2 / threads=3 /


nr=0 / decimate=0 / mbaff=0 / bframes=3 / b_pyramid=1 / b_adapt=2 / b_bias=0 / direct=3 / wpredb=1 / keyint=250 /


keyint_min=25 / scenecut=40 / rc=2pass / bitrate=2300 / ratetol=1.0 / qcomp=0.60 / qpmin=10 / qpmax=51 / qpstep=4 /


cplxblur=20.0 / qblur=0.5 / ip_ratio=1.40 / pb_ratio=1.30 / aq=1:1.00
Language : English


Audio
ID : 2
Format : AC-3
Format/Info : Audio Coding 3
Mode extension : CM (complete main)
Codec ID : A_AC3
Duration : 1h 32mn
Bit rate mode : Constant
Bit rate : 384 Kbps
Channel(s) : 6 channels
Channel positions : Front: L C R, Side: L R, LFE
Sampling rate : 48.0 KHz
Bit depth : 16 bits
Stream size : 254 MiB (14%)
Language : English


Text
ID : 3
Format : UTF-8
Codec ID : S_TEXT/UTF8
Codec ID/Info : UTF-8 Plain Text
Language : English


Giới Thiệu




Diễn viên : Michael Sheen
Sản xuất : Screen Gems
Kịch bản : Đang cập nhật
Thể loại : Giả Tưởng, Hành Động
Độ dài : 90 phút
Phát hành : 2009




Vào thời kỳ đen tối xa xưa, một người sói tên là Lucian đã tập hợp các người sói khác trong họ tộc cùng đứng lên chống lại ách cai trị của Viktor – nhà vua tàn bạo thuộc dòng dõi hoàng tộc ma ca rồng để giải thoát tự do cho tất cả những người sói đang bị nô lệ hoá dưới tay Viktor.


Underworld: Rise Of The Lycans là phần ba trong loạt phim giả tưởng kinh dị Underworld, tiếp nối hai phần trước là Underworld và Underworld: Evolution, tuy nhiên đây lại là những tình tiết diễn ra trước diễn biến của hai phần kia, nói đến căn nguyên của mối hận thù hàng thế kỷ qua giữa dòng dõi quý tộc ma cà rồng Death Dealers và nô lệ của họ là dòng dõi người sói Lycans, cũng như giải thích nguồn gốc của một vài nhân vật.


Phim xem khá hấp dẫn, có máu, có tình yêu, đau thương và bi phẫn, có tột cùng của nỗi đau, sự mất mát, chia ly và hy sinh cho tình yêu cao đẹp.


Cuộc chiến vẫn chưa kết thúc, Lucian đã nói "đây mới chỉ là bắt đầu". Liệu phần sau sẽ thế nào. Chúng ta cùng chờ nhé.


Subviet:


http://subscene.com/Underworld-Rise-of-the-Lycans/subtitles-75409.aspx


http://zpag.es/9scI
http://zpag.es/9scP
http://zpag.es/9scR
http://zpag.es/9scS
http://zpag.es/9scU
http://zpag.es/9scY
http://zpag.es/9sca
http://zpag.es/9scb
http://zpag.es/9scc
http://zpag.es/9scm
ĐợI 5 GIÂY CHọN SKIP AD RồI TảI,
tải xong bỏ đuôi hdm thay vao rar rồi giả nén nha.
pass: hdmovie.vn